Read More
Dantalian no Shoka

Sonu ke Titu ki sweety (2018) - 1CD - PreDVD-Rip - Hindi - x264 -...

  • Category Movies
  • Type Bollywood
  • Language Hindi
  • Total size 715.2 MB
  • Uploaded By Mafiaking
  • Downloads 20719
  • Last checked 1 day ago
  • Date uploaded 1 month ago
  • Seeders 55
  • Leechers 6

Infohash : 6A7F53AAEF2687F0B5237340C17A4D69E679AFD0












Ratings: 8.1/10

Genere:       Comedy, Romance

General
Complete name : Sonu ke Titu ki sweety (2018) - 1CD - PreDVD-Rip - x264 - MP3 - Mafiaking - M2Tv.mkv
Format : Matroska
Format version : Version 4 / Version 2
File size : 711 MiB
Duration : 2 h 11 min
Overall bit rate : 757 kb/s

Video
ID : 1
Format : AVC
Codec ID : V_MPEG4/ISO/AVC
Duration : 2 h 11 min
Bit rate : 675 kb/s
Width : 640 pixels
Height : 288 pixels
Frame rate mode : Constant
Frame rate : 25.000 FPS
Stream size : 634 MiB (89%)
Title : Mafiaking
Language : Hindi
Default : Yes
Forced : No

Audio
ID : 2
Format : MPEG Audio
Codec ID/Hint : MP3
Duration : 2 h 11 min
Bit rate mode : Constant
Bit rate : 80.0 kb/s
Channel(s) : 2 channels
Stream size : 75.2 MiB (11%)
Title : Mafiaking
Language : Hindi
Default : Yes
Forced : No

SAMPLE WITH IN TORRENT

[/quote]

**To View Image In Full Size Click on Thumbnails**






Files:

Sonu ke Titu ki sweety 2018 1CD PreDVDRip x264 MP3 Mafiaking M2Tv
  • Sonu ke Titu ki sweety 2018 1CD PreDVDRip x264 MP3 Mafiaking M2Tv.mkv (711.3 MB)
  • SaMple.mkv (3.9 MB)
  • To keep M2Tv going please read.txt (0.2 KB)
  • Torrent Downloaded From NextBit Torrents.txt (0.0 KB)

Comments

Code:

  • udp://tracker.coppersurfer.tk:6969/announce
  • udp://thetracker.org:80/announce
  • udp://tracker.leechers-paradise.org:6969/announce
  • udp://eddie4.nl:6969/announce
  • udp://zer0day.ch:1337/announce
  • udp://tracker.sktorrent.net:6969/announce
  • udp://9.rarbg.me:2710/announce
  • udp://9.rarbg.to:2710/announce
  • udp://torrent.gresille.org:80/announce
  • udp://tracker.aletorrenty.pl:2710/announce
  • udp://tracker.piratepublic.com:1337/announce
  • udp://tracker.opentrackr.org:1337/announce
  • udp://explodie.org:6969/announce
  • udp://p4p.arenabg.ch:1337/announce