6.8 Caged Women (1980)
Rake It Up by Yo Gotti ft. Nicki Minaj

Pari 2018 Hindi 720p PRE-DVDRip x264 AAC { TaRa }.mkv

  • Category Movies
  • Type Bollywood
  • Language Hindi
  • Total size 1.2 GB
  • Uploaded By SkTara
  • Downloads 60065
  • Last checked 1 day ago
  • Date uploaded 1 month ago
  • Seeders 329
  • Leechers 42

Pari

Horror

Pari is a supernatural horror film in which a man attempts to help a woman named Ruksana, an abuse victim, who he found chained up in a hut.

Infohash : AEF8BF4E43B99B7DA70DB875F4E66CFC66B86AC2


Pari 2018 Hindi 720p PRE-DVDRip x264 AAC { TaRa }.mkv.


===================================================================
General
Complete name               : Pari 2018 Hindi 720p PRE-DVDRip x264 AAC { TaRa }.mkv.
Format                      : Matroska
Format version              : Version 4 / Version 2
File size                   : 1.15 GiB
Duration                    : 2 h 5 min
Overall bit rate            : 1 318 kb/s
===================================================================
Video
ID                          : 1
Format                      : AVC
Format/Info                 : Advanced Video Codec
Format profile              : [email protected]
Format settings, CABAC      : Yes
Format settings, ReFrames   : 4 frames
Codec ID                    : V_MPEG4/ISO/AVC
Duration                    : 2 h 5 min
Bit rate                    : 1 200 kb/s
Width                       : 1 280 pixels
Height                      : 544 pixels
Display aspect ratio        : 2.35:1
Frame rate mode             : Constant
Frame rate                  : 25.000 FPS
Color space                 : YUV
Chroma subsampling          : 4:2:0
Bit depth                   : 8 bits
Scan type                   : Progressive
Bits/(Pixel*Frame)          : 0.069
Stream size                 : 1.06 GiB (92%)
Title                       : .....::::: TaRa :::::....
Writing library             : x264 core
Language                    : Hindi
Default                     : Yes
Forced                      : No
===================================================================
Audio
ID                          : 2
Format                      : AAC
Format/Info                 : Advanced Audio Codec
Format profile              : LC
Codec ID                    : A_AAC
Duration                    : 2 h 5 min
Bit rate                    : 106 kb/s
Channel(s)                  : 2 channels
Channel positions           : Front: L R
Sampling rate               : 44.1 kHz
Frame rate                  : 43.066 FPS (1024 spf)
Compression mode            : Lossy
Delay relative to video     : -80 ms
Stream size                 : 94.8 MiB (8%)
Title                       : .....::::: TaRa :::::....
Language                    : Hindi
Default                     : Yes
Forced                      : No
===================================================================




























Files:

Pari 2018 Hindi 720p PRE-DVDRip x264 AAC { TaRa }.mkv
  • www.hdsector.to.txt (0.8 KB)
  • www.hdsector.to.nfo (6.5 KB)
  • 10anushka-pari.jpg (110.9 KB)
  • PARI-123.jpg (150.0 KB)
  • Pari 2018 Hindi 720p PRE-DVDRip x264 AAC { TaRa }.mkv.mkv (1.2 GB)

Comments

Code:

  • udp://tracker.coppersurfer.tk:6969/announce
  • udp://tracker.pirateparty.gr:6969/announce
  • udp://shadowshq.yi.org:6969/announce
  • udp://eddie4.nl:6969/announce
  • udp://tracker.leechers-paradise.org:6969/announce
  • udp://tracker.opentrackr.org:1337/announce
  • udp://p4p.arenabg.ch:1337/announce
  • udp://p4p.arenabg.com:1337/announce
  • udp://9.rarbg.me:2720/announce
  • udp://9.rarbg.to:2780/announce
  • udp://tracker.coppersurfer.tk:80/announce
  • udp://tracker.vanitycore.co:6969/announce
  • udp://public.popcorn-tracker.org:6969/announce
  • udp://tracker.opentrackr.org:1337/announce
  • udp://tracker.zer0day.to:1337/announce